martes, 2 de octubre de 2012

Descargar Prometheus [2012][DVDRip][Subtitulos Pegados]




Un grupo de científicos y exploradores emprende un viaje espacial a un remoto planeta, una rara estrella recién descubierta, donde sus límites físicos y mentales serán puestos a prueba. El motivo de la misión es que los humanos creen que allá podrán encontrar la respuesta a las preguntas más profundas y al mayor de los misterios: el origen de la vida en la Tierra.



Titulo: Prometheus
Género: Ciencia Ficción / Terror
Año: 2012
Formato: AVI
Tamaño: 970Mb
Duración: 1hr 58min
Calidad: DVDRip
Resolución: 720 x 304
Idioma: Inglés 
Subtítulos: Español Pegados

General
Complete name : /disco4/tuteeuho/public_html/rapidleech/files/Descargas-Directas/PRO_bytuutecarp.avi
Format : AVI
Format/Info : Audio Video Interleave
File size : 1 002 MiB
Duration : 1h 58mn
Overall bit rate : 1 180 Kbps
Writing application : VirtualDubMod 1.5.10.2 (build 2542/release)
Writing library : VirtualDubMod build 2542/release

Video
ID : 0
Format : MPEG-4 Visual
Format profile : Advanced Simple@L5
Format settings, BVOP : 1
Format settings, QPel : No
Format settings, GMC : No warppoints
Format settings, Matrix : Default (H.263)
Muxing mode : Packed bitstream
Codec ID : XVID
Codec ID/Hint : XviD
Duration : 1h 58mn
Bit rate : 724 Kbps
Width : 720 pixels
Height : 304 pixels
Display aspect ratio : 2.35:1
Frame rate : 25.000 fps
Color space : YUV
Chroma subsampling : 4:2:0
Bit depth : 8 bits
Scan type : Progressive
Compression mode : Lossy
Bits/(Pixel*Frame) : 0.132
Stream size : 615 MiB (61%)
Writing library : XviD 64

Audio
ID : 1
Format : AC-3
Format/Info : Audio Coding 3
Mode extension : CM (complete main)
Codec ID : 2000
Duration : 1h 58mn
Bit rate mode : Constant
Bit rate : 448 Kbps
Channel(s) : 6 channels
Channel positions : Front: L C R, Side: L R, LFE
Sampling rate : 48.0 KHz
Bit depth : 16 bits
Compression mode : Lossy
Stream size : 380 MiB (38%)
Alignment : Split accross interleaves
Interleave, duration : 64 ms (1.60 video frames)
Interleave, preload duration : 500 ms







 



1 LINK

Letitbit (Arreglado)

Freakshare

Uploaded

Descarga como Premium en Letitbit!


Si se cae algun link, porfavor avisame!

2 comentarios :

  1. Hola gracias por visitar el blog, espero que la disfrutes :)
    saludos

    ResponderEliminar